Younger S04E08 720p AMZN WEBRip DDP2 0 x264-KiNGS[rarbg] | February 2017 (194) | Daredevil Season 1 Episode 8

Horror

666 The Beast 2007 Eng MP3 DVDrip Xvid TFE by M333

  • Download 5x Faster
  • Download torrent
  • Direct Download
  • Rate this torrent +  |  -
666 The Beast 2007 Eng MP3 DVDrip Xvid TFE by M333

Anonymous and Free Direct Download 300GB+


Torrent info

Name:666 The Beast 2007 Eng MP3 DVDrip Xvid TFE by M333

Total Size: 694.57 MB

Magnet: Magnet Link

Seeds: 0

Leechers: 0

Stream: Watch Online @ Movie4u

Last Updated: 2012-09-27 23:42:36 (Update Now)

Torrent added: 2008-06-28 18:35:54



VPN For Torrents

Torrent Files List


666 The Beast [2007] [Eng] [MP3] [DVDrip] [Xvid-TFE] by M333.avi (Size: 694.57 MB) (Files: 5)

 666 The Beast [2007] [Eng] [MP3] [DVDrip] [Xvid-TFE] by M333.avi

693.95 MB

 666.jpg

420.35 KB

 Logo.jpg

205.50 KB

 nfo.txt

2.87 KB

 Torrent downloaded from Demonoid.com.txt

0.05 KB
 

Announce URL:

Torrent description

General
Complete name : 666 The Beast [2007] [Eng] [MP3] [DVDrip] [Xvid-TFE] by M333.avi
Format : AVI
Format/Info : Audio Video Interleave
File size : 694 MiB
Duration : 1h 28mn
Overal bit rate : 1093 Kbps
Movie name : 666 The Beast [2007] [Eng] [MP3] [DVDrip] [Xvid-TFE] by M333

Video
Format : MPEG-4 Visual
Format profile : Streaming [email protected]
Format settings, BVOP : Yes
Format settings, QPel : No
Format settings, GMC : No warppoints
Format settings, Matrix : Default
Muxing mode : Packet Bitstream
Codec ID : XVID
Codec ID/Hint : XviD
Duration : 1h 28mn
Bit rate : 955 Kbps
Width : 640 pixels
Height : 352 pixels
Display aspect ratio : 16/9
Frame rate : 23.976 fps
Resolution : 8 bits
Colorimetry : 4:2:0
Scan type : Progressive
Bits/(Pixel*Frame) : 0.177
Stream size : 607 MiB
Writing library : XviD 1.2.0.dev47 (UTC 2006-11-01)

Audio
Format : MPEG Audio
Format version : Version 1
Format profile : Layer 3
Codec ID : 55
Codec ID/Hint : MP3
Duration : 1h 28mn
Bit rate mode : Constant
Bit rate : 128 Kbps
Minimum bit rate : 128 Kbps
Channel(s) : 2 channels
Sampling rate : 48.0 KHz
Resolution : 16 bits
Stream size : 81.3 MiB
Writing library : LAME3.97b
Encoding settings : CBR
Language : undefined

HASH

7650B1AAD44B4AA3178329657242254407FE5C84

Trackers

http://tpb.tracker.thepiratebay.org:80/announce

http://denis.stalker.h3q.com:6969/announce

http://open.tracker.thepiratebay.org/announce

http://www.torrentsnipe.info:2701/announce

http://open.tracker.thepiratebay.org/announce

http://vip.tracker.thepiratebay.org:80/announce


Screen Shots

666 The Beast 2007 Eng MP3 DVDrip Xvid TFE by M333 preview 0

666 The Beast 2007 Eng MP3 DVDrip Xvid TFE by M333 preview 1

666 The Beast 2007 Eng MP3 DVDrip Xvid TFE by M333 preview 2

666 The Beast 2007 Eng MP3 DVDrip Xvid TFE by M333 preview 3

666 The Beast 2007 Eng MP3 DVDrip Xvid TFE by M333 preview 4

IMDB

http://www.imdb.com/title/tt1104679/



related torrents

Torrent name

health leech seeds Size
 


comments (0)

Main Menu